<?xml version="1.0" standalone="no"?>
<!DOCTYPE svg PUBLIC "-//W3C//DTD SVG 1.1//EN" "http://www.w3.org/Graphics/SVG/1.1/DTD/svg11.dtd">
<svg xmlns="http://www.w3.org/2000/svg">
<metadata>Copyright (C) 2019 by original authors @ fontello.com</metadata>
<defs>
<font id="ltx-indicana" horiz-adv-x="1000" >
<font-face font-family="ltx-indicana" font-weight="400" font-stretch="normal" units-per-em="1000" ascent="850" descent="-150" />
<missing-glyph horiz-adv-x="1000" />
<glyph glyph-name="24-hours" unicode="&#xe800;" d="M414 326c-2 2-5 4-10 4h-34c-4 0-8-1-13-2-4 0-9-1-13-3l36 37c4 5 9 10 13 15 5 5 9 10 12 15s6 10 8 16c1 6 2 12 2 19 0 8-1 15-4 21-2 7-6 13-11 17-6 5-12 9-19 11-7 3-16 4-25 4-8 0-16-1-23-3-8-2-14-6-20-10-6-5-10-10-14-17-4-7-7-15-8-24l21-4c1 0 2 0 3 0 1 0 2 0 3 0 3 0 6 0 8 2 2 2 4 5 5 8 1 3 2 5 3 7 2 2 3 3 5 5 2 1 5 2 7 3 2 1 5 1 8 1 7 0 13-2 16-6 4-3 5-9 5-16 0-5 0-9-1-13-1-4-3-8-5-12-3-4-5-8-9-12-3-4-7-9-12-13l-53-54c-2-2-4-5-5-7-1-3-1-6-1-8v-13h129v23c0 4-1 7-4 9z m136 40h0v112h-37l-85-114 4-19c0-3 1-5 3-6 2-2 5-2 7-2h74v-43h34v43h11c3 0 5 0 6 2 1 1 2 3 2 5v22h-19z m-34 57c0-3 0-6 0-9h0v-48h-47l48 68c0-4-1-7-1-11z m188-26c-2 6-4 12-8 16-4 5-9 8-14 11-6 2-12 3-19 3-8 0-15-1-20-3s-11-6-15-10v69h-40v-189h40v94c3 3 7 5 10 7 4 2 8 3 13 3 5 0 10-2 13-6 3-3 4-8 4-15v-83h39v83c0 8-1 14-3 20z m-696 41c-2-11-4-21-5-32l32-4c1 10 2 21 4 30l-31 6z m15 63c-3-10-6-21-8-31l30-8c3 10 5 20 8 30l-30 9z m9-129l-31 1c-1-7-1-15-1-23 0-3 0-6 0-9l32 0c0 3 0 6 0 9 0 7 0 15 0 22z m15 190c-5-10-9-20-13-30l30-11c3 9 7 18 12 28l-29 13z m12-370l-30-11c4-10 8-20 12-30l29 12c-4 10-8 19-11 29z m138-199l-21-24c8-7 17-14 26-20l18 25c-8 6-16 13-23 19z m-44 43l-24-21c8-8 15-16 23-24l22 23c-7 7-14 14-21 22z m-38 48l-26-18c6-9 13-18 19-27l25 20c-6 8-12 16-18 25z m-32 52l-28-15c5-9 11-19 16-28l27 16c-5 9-10 18-15 27z m-41 114l-31-6c3-11 5-22 8-32l31 9c-3 10-6 19-8 29z m-9 61l-31-3c1-11 2-22 4-32l31 4c-2 10-3 21-4 31z m863 345l-25-20c6-8 12-16 18-24l26 17c-6 9-13 18-19 27z m65-112l-29-13c4-9 8-19 11-28l30 10c-4 10-8 21-12 31z m-882 75c-6-9-12-18-17-28l28-15c4 9 10 18 15 26l-26 17z m903-137l-30-8c3-10 5-20 7-30l31 6c-2 11-5 22-8 32z m13-64l-31-4c2-10 3-20 3-30l32 2c-1 11-2 21-4 32z m-63 184l-27-16c5-9 10-18 14-27l29 14c-5 10-10 19-16 29z m-770 117c-8-8-16-15-23-23l23-22c7 7 14 15 22 21l-22 24z m-45-47c-7-9-14-17-20-26l25-19c6 8 13 17 19 24l-24 21z m25 139l60-60c-5-3-10-7-15-11l20-25c5 5 11 9 17 14l67-67v149h-149z m118-73l-41 41h41v-41z m544 9l-20-25c8-6 16-12 24-19l21 24c-8 7-17 14-25 20z m49-42l-23-23c8-7 15-14 21-22l24 21c-7 8-15 16-22 24z m-224 128l-8-30c10-3 19-6 29-9l10 30c-10 3-21 6-31 9z m109-886c-8-6-17-10-26-15l14-28c10 5 19 10 28 15l-16 28z m11 837l-15-28c8-5 17-10 25-16l18 26c-9 6-18 12-28 18z m-65-865c-9-4-19-8-28-11l10-30c10 4 21 8 30 12l-12 29z m7 893l-12-29c9-4 18-8 28-12l13 28c-9 5-19 9-29 13z m98-831c-8-6-16-12-25-18l18-26c9 6 18 13 26 19l-19 25z m211 372l-32 0c0-1 0-2 0-3 0-9 0-18 0-28l31-1c1 9 1 19 1 29 0 1 0 2 0 3z m-166-331c-7-7-14-14-22-21l21-24c8 7 16 15 24 23l-23 22z m131 270c-1-10-3-20-5-30l31-6c2 11 4 21 5 32l-31 4z m-31-118c-4-9-8-19-12-28l28-14c5 10 9 20 14 30l-30 12z m-60-106c-6-8-12-16-19-24l24-20c7 8 14 16 20 25l-25 19z m34 51c-5-9-11-17-16-26l26-17c6 9 12 18 17 28l-27 15z m45 113c-2-10-5-20-8-29l30-10c3 10 6 21 9 31l-31 8z m-447-350c-10-1-20 0-31 0l-1-31c8-1 17-1 26-1 2 0 4 0 6 0l0 32z m-91 7l-6-31c11-2 22-3 32-5l4 32c-10 1-20 2-30 4z m-169 68l-18-27c9-6 19-11 28-17l16 28c-9 5-18 10-26 16z m53-30l-14-29c10-4 20-9 30-13l12 30c-10 3-19 7-28 12z m57-23l-10-30c10-3 21-6 31-9l8 31c-10 2-20 5-29 8z m209 942l-4-31c10-2 20-3 30-5l6 31c-10 2-21 3-32 5z m2-960c-10-1-20-2-31-3l3-32c11 1 22 2 32 4l-4 31z m60 13c-10-3-20-5-30-7l6-31c11 2 22 4 32 7l-8 31z m-127 951v-32c10 0 20 0 31-1l2 32c-11 1-22 1-33 1z" horiz-adv-x="1000" />

<glyph glyph-name="arrow" unicode="&#xe801;" d="M989 337l-96 95c-2 3-6 3-8 0-2-2-2-5 0-8l87-87h-956c-3 0-5-2-5-4v0c0-3 2-5 5-5h956l-87-87c-2-2-2-6 0-8 1-1 3-2 4-2s3 1 4 2l96 96c2 2 2 5 0 8z" horiz-adv-x="1000" />

<glyph glyph-name="call" unicode="&#xe802;" d="M888 590l25 17c-6 9-12 18-18 26l-24-19c6-8 11-16 17-24z m53-105l29 10c-4 10-8 20-12 29l-28-12c4-9 7-18 11-27z m15-57l30 6c-2 10-4 20-7 30l-30-8c3-9 5-19 7-28z m8-59l31 2c-1 11-2 21-4 32l-30-5c1-9 3-19 3-29z m-46 170l27 14c-5 9-10 19-15 28l-26-16c5-8 9-17 14-26z m-88 163c-8 7-16 13-24 20l-19-24c8-7 16-13 23-19l20 23z m45-45c-7 8-15 16-22 23l-22-21c8-7 14-15 21-22l23 20z m-209 139c-10 3-20 6-30 9l-8-29c10-3 19-6 29-9l9 29z m50-865l14-27c10 5 19 10 28 15l-16 27c-8-5-17-10-26-15z m64 809c-9 6-18 12-27 17l-15-27c8-5 17-10 25-15l17 25z m-118-832l10-29c10 4 20 8 30 12l-12 28c-9-4-19-8-28-11z m63 864c-10 4-19 9-29 13l-12-29c9-3 18-7 27-12l14 28z m42-811l17-25c9 6 18 12 26 19l-19 24c-8-6-16-12-24-18z m229 379l-31 0c0-1 0-2 0-3 0-9 0-18 0-27l30-2c1 9 1 19 1 29 0 1 0 2 0 3z m-182-342l20-23c8 7 15 14 23 22l-22 22c-7-7-14-14-21-21z m143 253l30-5c2 10 4 20 5 31l-30 4c-1-10-3-20-5-30z m-37-112l28-13c4 9 9 19 13 29l-29 11c-3-9-8-18-12-27z m-65-99l24-20c6 8 13 17 19 25l-24 18c-6-7-12-15-19-23z m36 48l25-17c6 9 12 18 17 27l-27 15c-4-9-10-17-15-25z m51 106l30-10c3 10 6 21 9 31l-30 7c-3-9-5-19-9-28z m-455-311l-1-31c8 0 17 0 25 0 2 0 4 0 6 0l0 31c-10-1-20 0-30 0z m119 929c-11 2-21 4-32 5l-4-30c10-1 20-3 30-5l6 30z m-59-928l2-31c10 1 21 2 31 4l-4 30c-10-1-20-2-29-3z m58 8l6-30c11 2 21 5 31 8l-8 29c-10-2-19-5-29-7z m-62 928c-11 1-21 1-32 1v-31c10 0 20 0 30 0l2 30z m-411-206l-24 19c-6-8-13-17-18-26l25-17c6 8 11 16 17 24z m-59-102l-28 12c-4-9-8-19-12-29l29-10c3 9 7 18 11 27z m-19-56l-30 9c-3-11-5-21-7-31l30-6c2 9 4 19 7 28z m-12-58l-30 5c-2-11-3-21-4-32l31-2c1 10 1 20 3 29z m57 167l-26 16c-5-9-10-19-15-28l27-14c5 9 9 18 14 26z m117 133l-18 24c-9-7-17-13-25-20l20-23c8 6 15 12 23 19z m-44-39l-22 21c-8-7-15-15-22-23l23-20c7 7 14 15 21 22z m202 116l-7 30c-11-3-21-6-31-9l10-29c10 3 19 6 28 8z m-129-856c9-5 18-10 28-15l14 27c-9 5-18 10-26 15l-16-27z m20 811l-15 27c-9-5-18-11-27-17l17-25c8 5 17 10 25 15z m36-839c10-4 20-8 30-12l10 29c-9 3-19 7-28 11l-12-28z m17 865l-11 29c-10-4-20-9-29-13l13-28c9 5 18 9 27 12z m-125-801c8-7 17-13 25-19l18 25c-9 6-17 12-24 18l-19-24z m-155 382c0 1 0 2 0 3l-31 0c0-1 0-2 0-3 0-10 0-20 1-29l30 2c0 9 0 18 0 27z m130-318l-22-22c7-7 15-15 23-22l20 23c-7 7-14 14-21 21z m-127 261l-30-3c1-11 3-21 4-32l31 6c-2 10-4 20-5 29z m30-114l-29-11c4-10 9-20 13-29l28 13c-4 9-9 18-12 27z m58-103l-24-18c6-8 13-17 19-25l24 20c-7 8-13 16-19 23z m-32 50l-27-15c5-9 11-18 16-27l26 17c-6 8-11 16-15 25z m-45 109l-29-7c2-10 5-21 8-31l30 10c-4 9-6 19-9 28z m381 565l-4 30c-11-1-21-3-31-5l5-30c10 2 20 4 30 5z m53 4l-1 30c-11 0-21-1-31-2l2-30c10 1 20 1 30 2z m-63-934c10-2 21-3 31-4l2 31c-9 1-19 1-29 3l-4-30z m-62 13c10-3 20-6 30-8l7 30c-10 2-20 4-29 7l-8-29z m391 222l29 47c9 16 5 37-11 47l-113 76c-6 3-13 5-19 5-11 0-21-4-28-13l-33-42c-2-3-6-5-10-5-2 0-4 0-6 1l-6 4c-21 11-46 25-98 77-52 52-66 78-78 99l-3 6c-3 5-2 12 3 15l43 33c14 12 17 32 7 47l-75 114c-7 9-18 15-30 15-6 0-12-2-18-5l-47-29c-15-9-26-23-31-40-17-63-4-171 154-329 106-106 202-160 285-160l1 0c14 0 29 2 43 6 18 4 32 15 41 31z m-396 291l4-6c12-22 27-50 81-104 54-54 81-69 103-81l6-3c5-3 11-5 17-5 11 0 21 5 28 14l33 42c2 3 5 5 9 5 3 0 5-1 7-2l113-76c6-3 8-11 4-16l-28-48c-6-10-16-17-27-21-13-3-26-5-39-5-77 0-167 52-269 154-151 151-164 250-148 307 3 11 11 21 21 27l47 29c2 1 4 1 6 1 5 0 8-2 11-5l41-62 34-51c4-5 3-13-3-17l-42-33c-13-10-17-29-9-44z m174 149c0-6 5-11 11-11 86 0 157-71 157-157 0-6 5-11 11-11s11 5 11 11c0 99-80 179-179 179-6 0-11-5-11-11z m112-168c0-6 5-11 11-11s12 5 12 11c0 68-56 123-124 123-6 0-11-5-11-11s5-11 11-11c56 0 101-45 101-101z m-112 56c0-6 5-11 11-11 25 0 45-20 45-45 0-6 5-11 11-11s12 5 12 11c0 37-31 67-68 67-6 0-11-5-11-11z" horiz-adv-x="1000" />

<glyph glyph-name="paper-plane" unicode="&#xe803;" d="M990 847c-6 4-13 4-19 0l-358-211c-10-6-13-18-7-27 5-9 17-12 27-7l256 152-478-496-238 72 311 184c9 5 12 17 6 27-5 9-17 12-26 7l-349-207c-7-3-10-11-9-19s6-14 13-16l284-87 126-228c0 0 0-1 0-1 2-3 5-6 9-8 3-1 5-1 8-1 5 0 10 2 14 5l144 141 271-83c2 0 4-1 6-1 4 0 8 2 11 4 5 4 8 10 8 16v768c0 7-4 13-10 16z m-460-640c-2-3-4-7-4-11v-120l-85 156 379 393-290-418z m35-160v122l96-29-96-93z m396 42l-384 118 384 554v-672z m-640 82c-7 8-20 8-27 0l-183-182c-7-8-7-20 0-28 4-4 9-6 14-6s10 2 14 6l182 183c8 7 8 20 0 27z m-243-243c-7 8-20 8-27 0l-45-45c-8-7-8-20 0-27 4-4 9-6 14-6s10 2 13 6l45 45c8 7 8 20 0 27z m201-44c-4 4-9 6-14 6-5 0-10-2-14-6-4-3-6-8-6-13 0-6 2-11 6-14 4-4 9-6 14-6s10 2 14 6c3 3 5 8 5 14 0 5-2 10-5 13z m145 146c-8 7-20 7-28 0l-96-97c-8-7-8-20 0-27 4-4 9-6 14-6s10 2 13 6l97 96c8 8 8 20 0 28z m333 7c-7 8-20 8-27 0l-97-97c-8-7-8-20 0-27 4-4 9-6 14-6s10 2 13 6l97 97c8 7 8 20 0 27z m-203 547c-4 3-9 6-14 6s-10-3-14-6c-3-4-6-9-6-14 0-5 3-10 6-14 4-3 9-6 14-6s10 3 14 6c3 4 5 9 5 14 0 5-2 10-5 14z" horiz-adv-x="1000" />

<glyph glyph-name="two-quotes" unicode="&#xe804;" d="M192 784c-106 0-192-88-192-197 0-109 86-197 192-197 192 0 64-382-192-382v-92c457 0 635 868 192 868z m553 0c-106 0-192-88-192-197 0-109 86-197 192-197 191 0 63-382-192-382v-92c456 0 635 868 192 868z" horiz-adv-x="1000" />

<glyph glyph-name="znak" unicode="&#xe805;" d="M337 317c43-34 96-56 129-67-20 33-58 88-104 130-46 41-95 62-124 71 16-35 48-94 99-134z m-89-107c25-11 62-22 102-22 40 0 81 15 109 29-29 7-69 15-109 15-41 0-77-12-102-22z m252 45c18 34 47 103 47 181 0 77-28 145-47 181-18-36-47-104-47-181 0-78 30-147 47-181z m-65-95c-15-12-23-25-27-37 13 7 29 18 43 34 7 9 14 18 19 28-11-8-23-16-35-25z m216 72c-40 0-80-8-109-15 29-14 69-29 109-29 41 0 77 11 102 22-25 10-61 22-102 22z m-151 602c-267 0-484-217-484-484s217-485 484-485 485 217 485 485-217 484-485 484z m298-638c-3-1-67-40-147-40-13 0-28 2-43 5 22-31 21-63 21-65 0-5-2-9-6-12-3-2-6-3-9-3-2 0-3 0-5 1-2 0-48 14-83 55-3 4-6 8-10 13v-78c0-9-7-16-16-16-8 0-15 7-15 16v78c-4-5-7-9-10-13-35-41-81-55-83-55-2-1-3-1-5-1-3 0-6 1-9 3-4 3-6 7-6 12 0 2-2 34 21 65-15-3-30-5-43-5-79 0-144 39-147 40-4 3-7 8-7 14 0 5 3 10 7 13 3 2 67 40 147 40 3 0 7 0 10 0-15 9-30 19-42 29-85 66-120 172-121 177-2 5-1 11 3 15 3 3 7 5 12 5 1 0 1 0 2 0 4 0 90-14 169-86 16-14 32-31 49-51-7 29-10 57-10 84 0 122 63 218 65 222 3 4 8 7 14 7 5 0 10-3 13-7 2-4 65-101 65-222 0-27-3-55-9-84 16 20 32 37 48 51 79 72 165 86 169 86 1 0 2 0 2 0 5 0 9-2 12-5 4-4 5-10 3-15-1-5-36-111-120-177-13-10-28-20-43-29 3 0 7 0 10 0 80 0 144-38 147-40 4-2 7-8 7-13 0-6-3-11-7-14z m-263 54c33 11 86 33 129 67 52 40 84 99 99 134-29-9-78-30-124-71-46-42-84-97-104-130z m58-127c-4 11-12 25-27 37-12 9-24 17-35 25 5-10 12-19 19-28 14-16 30-27 43-34z" horiz-adv-x="1000" />

<glyph glyph-name="hairstyle" unicode="&#xe806;" d="M763 788c-15 0-27 12-27 27 0 19-16 35-36 35s-35-16-35-35c0-15-12-27-27-27-19 0-35-16-35-36s16-35 35-35c15 0 27-12 27-27 0-19 16-35 35-35s36 16 36 35c0 15 12 27 27 27 19 0 35 16 35 35s-16 36-35 36z m-63-76c-6 19-21 34-40 40 19 7 34 22 40 40 7-18 22-33 41-40-19-6-34-21-41-40z m182-92c-15 0-27 12-27 27 0 19-16 35-35 35s-35-16-35-35c0-15-12-27-28-27-19 0-35-16-35-36 0-19 16-35 35-35 16 0 28-12 28-27 0-20 16-35 35-35 19 0 35 15 35 35 0 15 12 27 27 27 20 0 36 16 36 35 0 20-16 36-36 36z m-62-76c-7 19-21 34-40 40 19 7 33 22 40 40 7-18 21-33 40-40-19-6-33-21-40-40z m-337 52l-80 14c-8 1-16-2-20-8l-31-47c-27-39-67-67-113-78-10-3-17-14-14-24 2-9 10-15 19-15 1 0 3 0 5 1 55 14 103 47 135 94l24 36 68-12c10-1 21 6 22 16 2 11-5 21-15 23z m141-663c0 2 0 3-1 4 0 1-1 2-2 3 0 1-1 2-2 3-1 1-2 2-3 3-1 1-2 1-3 2-1 0-3 0-4 1-2 0-5 0-8 0-1-1-2-1-3-1-1-1-3-1-4-2-1-1-2-2-3-3 0-1-1-2-2-3-1-1-1-2-2-3 0-1-1-2-1-4 0-1 0-2 0-3 0-2 0-3 0-4 0-1 1-3 1-4 1-1 1-2 2-3 1-1 2-2 2-3 1-1 2-2 3-3 1 0 3-1 4-1 1-1 2-1 3-2 2 0 3 0 4 0 1 0 3 0 4 0 1 1 3 1 4 2 1 0 2 1 3 1 1 1 2 2 3 3 1 1 2 2 2 3 1 1 2 2 2 3 1 1 1 3 1 4 1 1 1 2 1 4 0 1 0 2-1 3z m179 171c-5 4-10 6-16 5-11-1-38-1-49 11-5 6-6 16-3 31 12 48 15 126 15 135 0 111-16 196-50 260-49 93-135 140-254 140-119 0-204-47-253-140-34-64-50-149-50-260 0-1 0-82 14-135 3-15 2-25-3-31-12-12-40-12-50-11-5 1-11-1-15-5-4-3-7-9-7-14 0-30 17-71 96-102v-119c0-10 9-19 19-19h497c11 0 20 9 20 19v119c78 31 95 72 95 102 0 5-2 11-6 14z m-128-215h-458v21h307c11 0 20 9 20 20 0 10-9 19-20 19h-307c0 0 0 62 0 63 0 20 16 36 37 36h129c7-28 33-48 63-48 30 0 55 20 63 48h129c20 0 37-16 37-36 0-1 0-123 0-123z m-270 256c-71 18-121 83-121 157v61c65 20 122 61 162 116l16-3c84-15 146-88 146-174 0-74-50-139-122-157-8-3-14-10-14-19v-61c0-15-12-26-26-26-14 0-26 11-26 26v61c0 9-6 16-15 19z m307-116c-9 34-38 58-74 58h-127v24c81 28 136 104 136 191 0 105-75 195-179 213l-27 5c-8 1-15-2-20-8l-2-3c-37-56-94-96-160-112-8-2-15-10-15-19v-76c0-87 56-163 137-191v-24h-127c-36 0-66-24-74-58-21 10-43 24-53 41 18 2 41 7 56 24 10 11 20 32 12 66-12 48-13 125-13 126 0 105 15 184 46 242 42 80 114 119 218 119 105 0 177-39 219-119 31-58 46-137 46-242 0-12-4-84-14-126-8-34 2-55 12-66 15-17 38-22 56-24-10-17-33-31-53-41z m-304 305c-8 8-20 8-28 0-4-4-9-6-15-6-6 0-12 2-16 6-7 8-20 8-27 0-8-8-8-20 0-28 11-11 26-17 43-17s32 6 43 17c8 8 8 20 0 28z m162 0c-8 8-20 8-28 0-4-4-9-6-15-6-6 0-12 2-16 6-7 8-20 8-27 0-8-8-8-20 0-28 11-11 26-17 43-17 16 0 32 6 43 17 8 8 8 20 0 28z m-81-111c-8 7-20 7-28 0-8-9-22-9-31 0-7 7-20 7-27 0-8-8-8-20 0-28 11-12 27-18 43-18 15 0 31 6 43 18 8 8 8 20 0 28z" horiz-adv-x="1000" />

<glyph glyph-name="moon" unicode="&#xe807;" d="M591 527c-5 4-10 6-16 5h-88l83 92 7 9 4 5c2 2 3 4 4 6 1 3 1 5 1 8 1 6-2 12-8 15-7 3-14 4-22 4h-102c-6 0-11-1-15-5-4-3-6-7-6-12 0-7 3-11 7-13 7-2 14-3 21-2h67c-3-4-6-9-11-14l-17-19-23-25-27-30c-9-11-16-18-18-21-7-8-6-20 1-27 6-4 13-6 20-6h122c5 0 11 2 16 5 3 3 5 8 5 12 0 5-2 10-5 13z m185-106c-4 3-9 4-13 4h-70l65 73 7 7 4 5c1 1 2 3 2 5 1 2 1 4 1 6 1 5-1 9-6 12-5 3-11 4-17 3h-83c-4 1-8-1-12-3-3-3-4-6-4-10 0-6 2-9 5-11 6-1 11-2 17-2h53c-2-3-5-6-8-11l-14-15-18-21-21-24c-7-8-12-14-15-17-5-6-4-15 2-21 4-3 10-5 15-4h97c4-1 9 1 13 4 3 2 4 6 4 9 0 4-2 8-4 11z m219 117c-5 4-11 5-16 5h-89l83 92 7 9 5 6c2 2 3 4 4 6 1 2 1 5 1 7 1 7-2 12-8 15-6 4-14 5-21 5h-104c-5 0-11-2-15-5-4-3-6-8-6-12 0-7 3-12 7-13 7-2 14-3 21-3h67c-3-4-6-8-11-13l-17-20-23-25-27-30c-9-10-15-17-18-21-7-8-6-20 2-27 5-4 12-6 19-5h122c6-1 12 0 17 4 3 3 5 7 5 12 0 5-2 10-5 13z m-72-352c-6 7-15 8-23 5-227-93-486 14-580 240-47 115-44 245 8 358 5 10 1 22-10 27-5 3-11 3-17 1-248-102-366-386-264-634s385-367 633-265c113 47 205 134 256 245 4 8 2 17-3 23z m-437-263c-245 0-444 199-444 444 0 162 87 310 228 388-17-49-25-101-25-153 0-268 217-486 486-486 45 0 89 6 133 19-81-131-224-211-378-212z" horiz-adv-x="1000" />

<glyph glyph-name="salad" unicode="&#xe808;" d="M983 217h-966c-9 0-17-8-17-17 0-193 157-350 350-350h300c193 0 350 157 350 350 0 9-7 17-17 17z m-333-334h-300c-169 0-307 133-316 300h932c-8-167-147-300-316-300z m200 734c0 1 0 2 0 4-3 27-22 50-47 59l19 19c33 32 36 83 8 119-31 37-86 43-124 12-2-2-4-4-6-6l-20-20c-9 24-32 43-60 46-37 2-68-26-70-63 0-1 0-2 0-4v-25c-10 5-21 9-33 9-1 0-3 0-4 0-36-4-64-34-63-70v-23c-10 6-21 9-33 9-1 0-3 0-4 0-36-3-64-34-63-69v-247c0-10 8-17 17-17h283c37 0 67 30 67 67 0 12-4 23-9 33h22c36-1 67 27 70 63 1 14-3 26-9 37 15 2 29 9 40 19 12 13 19 30 19 48z m-43-24c-6-6-15-10-24-10 0 0 0 0 0 0h-50c-9 0-16-7-16-16s7-17 16-17l2 0c19-1 33-17 32-34-2-19-18-33-36-33h-81c-9 0-17-7-17-16s8-17 17-17c18 0 33-15 33-33s-15-34-33-34h-267v231c0 19 14 34 32 36l2 0c18 0 33-15 33-33v0c0-10 8-17 17-17 0 0 0 0 0 0 9 0 16 7 16 17v0 80c0 19 14 35 32 36l2 0c18 0 33-15 33-33v0c0-9 7-17 17-17 0 0 0 0 0 0 9 0 16 8 16 17v0 83l0 2c1 19 17 33 35 32 18-2 32-18 32-37v-13c0-7 4-13 10-16 7-2 14-1 19 4l45 46c1 1 2 2 4 3 23 19 57 16 76-7 17-22 15-55-5-75l-44-44c-5-4-6-12-4-18 3-6 9-10 16-10h14c0 0 0 0 0 0 19 0 34-14 36-32l0-1c0-9-4-18-10-24z m-496 180c0 0 0 0 0 0-23 35-71 45-106 21-2 0-3-1-4-2l-6-5-6 5c-30 28-78 27-107-3-14-15-22-34-22-55 1-20 9-40 24-54 4-4 9-7 14-11l14-10v-9c0-46 37-83 83-83s84 37 84 83v9l14 11c32 24 40 69 18 103z m-38-77l-21-16c-4-3-7-8-7-13v-17c0-28-22-50-50-50-27 0-50 22-50 50v17c0 5-2 10-6 13l-21 16c-1 1-2 1-2 2-3 2-6 4-9 6-8 8-13 19-13 31 0 11 4 22 12 31 8 8 20 13 31 13 11 0 22-4 30-12 1-1 1-1 2-2l17-12c6-4 14-4 19 0l18 14c10 6 21 8 33 6 11-2 21-9 27-18 13-19 8-45-10-59z m627 54v-33c18 0 33-15 33-34s-15-33-33-33v-33c37 0 67 30 67 66 0 37-30 67-67 67z m-250-433c-37 0-67-30-67-67h34c0 18 15 33 33 33 18 0 33-15 33-33h34c0 37-30 67-67 67z m-450 150h-2c-7 28-34 50-65 50s-57-22-64-50h-2c-37 0-67-30-67-67 0-37 30-67 67-67h133c37 0 67 30 67 67 0 37-30 67-67 67z m0-100h-133c-19 0-34 15-34 33 0 18 15 33 34 33h16c10 0 17 8 17 17 0 18 15 33 33 33s34-15 34-33c0-9 7-17 16-17h17c18 0 33-15 33-33 0-18-15-33-33-33z m-33 0h-67c-9 0-17-8-17-17v-67c0-9 8-16 17-16h67c9 0 16 7 16 16v67c0 9-7 17-16 17z m-17-67h-33v33h33v-33z m733 117c-27 0-50-23-50-50s23-50 50-50c28 0 50 22 50 50s-22 50-50 50z m0-67c-9 0-16 7-16 17 0 9 7 16 16 16s17-7 17-16c0-10-7-17-17-17z m0 133c-64 0-116-52-116-116s52-117 116-117c65 0 117 52 117 117s-52 116-117 116z m0-200c-46 0-83 38-83 84 0 46 37 83 83 83 46 0 84-37 84-83 0-46-38-84-84-84z" horiz-adv-x="1000" />

<glyph glyph-name="smile" unicode="&#xe809;" d="M211 281c-4 4-9 6-14 6-5 0-10-2-14-6-3-3-5-8-5-14 0-5 2-10 5-13 4-4 9-6 14-6s10 2 14 6c4 3 6 8 6 13 0 6-2 11-6 14z m184 0c-3 4-8 6-14 6-5 0-10-2-13-6-4-3-6-8-6-14 0-5 2-10 6-13 3-4 8-6 13-6s11 2 14 6c4 3 6 8 6 13 0 6-2 11-6 14z m-36-107c-10 3-21-4-24-14-5-21-24-35-46-35-21 0-40 14-46 35-3 10-13 17-24 14-10-3-16-14-14-24 10-38 45-65 84-65 40 0 74 27 84 65 3 10-3 21-14 24z m141 598c-11 0-19-9-19-20v-124c0-10 8-19 19-19 11 0 20 9 20 19v124c0 11-9 20-20 20z m14-199c-4 4-9 6-14 6-5 0-10-2-14-6-3-4-5-9-5-14s2-10 5-14c4-3 9-5 14-5 5 0 10 2 14 5s6 9 6 14-2 10-6 14z m-133 21l-50 50c-7 8-20 8-27 0-8-8-8-20 0-28l50-49c3-4 8-6 13-6 5 0 10 2 14 6 8 7 8 20 0 27z m316 50c-8 8-20 8-28 0l-53-53c-7-8-7-20 0-28 4-3 9-5 14-5 5 0 10 2 14 5l53 53c8 8 8 20 0 28z m293-352c-41 154-200 246-354 205-53-14-100-42-136-81-55 58-130 91-211 91-159 0-289-130-289-290s130-289 289-289c81 0 157 33 211 91 54-57 130-91 211-91 25 0 50 3 75 10 154 41 245 200 204 354z m-701-325c-138 0-250 112-250 250 0 138 112 250 250 250 72 0 139-29 186-82-5-7-10-15-15-23-38-67-49-145-29-219 10-35 25-66 44-93-47-53-114-83-186-83z m487 9c-134-36-271 44-307 177-17 64-8 132 25 190 6 10 13 20 21 30 0 0 0 1 1 1 33 41 78 71 130 85 22 6 43 9 65 9 110 0 212-74 241-186 36-133-43-270-176-306z m-122 280c-6 22-30 36-52 30-23-6-36-30-30-52 2-9 10-15 19-15 1 0 3 1 5 1 10 3 16 14 13 24 0 2 1 4 3 4 1 0 2 0 2 0 1-1 2-1 2-2 3-11 13-17 24-14 10 3 16 13 14 24z m176 47c-2 11-9 20-19 26-10 6-22 7-32 4-11-3-21-10-26-20-6-9-7-21-4-32 2-8 10-14 18-14 2 0 4 0 6 0 10 3 16 14 13 24 0 1 0 2 1 3s1 1 2 1c1 1 2 0 2 0s1-1 2-2c3-10 13-17 24-14 10 3 16 14 13 24z m-17-122c-2 10-13 16-24 13-10-2-16-13-13-24 6-24-9-50-33-57-12-3-25-1-36 5-10 6-18 16-21 28-3 11-14 17-24 14-11-3-17-13-14-24 6-22 20-40 40-52 13-7 28-11 42-11 8 0 15 1 23 3 45 12 73 59 60 105z" horiz-adv-x="1000" />

<glyph glyph-name="care" unicode="&#xe80a;" d="M597 48h-76c-11 0-19-9-19-20 0-10 8-19 19-19h76c12 0 21-10 21-22 0-11-9-21-21-21h-204c-31 0-60 14-79 37l-49 59c-26 32-64 50-105 51v116h72c35 0 69-14 94-39l106-101c7-7 7-19 0-27-7-8-19-8-27-1l-82 76c-8 7-21 6-28-2-7-8-7-20 1-27l83-76c11-10 25-15 39-15 16 0 32 6 43 18 21 23 20 60-2 82l-106 101c-32 32-76 50-121 50h-76c-7 17-24 29-44 29h-92c-11 0-20-9-20-19v-143c0-11 9-20 20-20 10 0 19 9 19 20v123h73c5 0 9-4 9-9v-157c0-5-4-9-9-9h-21c-11 0-19-9-19-20 0-10 8-19 19-19h21c20 0 37 12 44 30 31 0 59-13 79-37l49-59c27-32 67-51 109-51h204c33 0 60 27 60 60s-27 61-60 61z m384 544c-11 0-20-8-20-19v-131h-72c-6 0-10 4-10 9v157c0 5 4 9 10 9h18c11 0 20 9 20 20 0 10-9 19-20 19h-18c-21 0-38-12-45-30-31 0-59 14-79 37l-49 59c-27 32-66 51-109 51h-204c-33 0-60-27-60-60 0-34 27-61 60-61h84c10 0 19 9 19 20s-9 19-19 19h-84c-11 0-21 10-21 22 0 11 10 21 21 21h204c31 0 60-14 79-37l49-59c26-31 64-50 105-51v-115h-72c-35 0-69 13-94 38l-106 101c-7 8-7 20 0 27 7 8 19 8 27 1l82-75c8-8 21-7 28 1 7 8 7 20-1 27l-83 76c-23 22-60 20-82-3-21-23-20-60 2-82l106-101c32-32 76-49 121-49h76c7-18 25-30 45-30h92c10 0 19 9 19 19v151c0 11-9 19-19 19z m-350-483c-5 9-16 14-26 9-10-4-15-15-10-25 3-8 10-12 18-12 2 0 5 0 7 2 0 0 1 0 1 0 10 4 14 16 10 26z m48 32c-6 9-19 11-27 5-9-7-11-19-4-28 3-5 9-8 15-8 4 0 8 2 12 4 0 0 0 0 0 0 9 7 11 19 4 27z m-103-54c-2 10-13 17-23 15-11-2-17-13-15-23 1-9 10-16 19-16 1 0 2 0 3 0 1 0 1 0 1 0 11 3 17 13 15 24z m144 97c-8 7-20 7-28-2 0 0 0 0 0 0-7-8-6-20 2-28 4-3 8-4 13-4 5 0 11 2 14 6 8 8 7 21-1 28z m-11-17l-2 2 2-2 0 0z m61 123c-11 3-22-3-25-13-3-11 3-22 13-25 2 0 4-1 6-1 8 0 16 6 19 14l0 0c3 11-3 22-13 25z m25 101c0 0 0 0 0 0-3 11-13 18-24 15-10-2-17-12-15-23 2-9 10-15 19-15 2 0 3 0 4 0 10 2 18 12 16 23z m-18-43c-11 1-20-7-21-18 0 0 0 0 0 0-1-11 7-20 18-21 0 0 1 0 1 0 10 0 19 8 19 18 1 11-7 20-17 21z m-26-114c-10 5-22 2-27-7l0-1c-6-9-2-21 7-26 3-2 7-3 10-3 7 0 13 4 17 11l-17 9 17-9c5 9 2 21-7 26z m-355 372c-4 10-16 14-26 9l0 0c-10-5-14-17-9-26 4-7 11-11 18-11 3 0 6 0 9 2 9 5 13 16 8 26z m57 16c-3 11-13 17-24 15 0 0 0 0 0 0-11-3-17-14-14-24 2-9 10-15 19-15 1 0 3 0 4 1 11 2 17 13 15 23z m-108-44c-7 8-19 10-28 3l12-15-12 15c-8-7-10-19-3-28 4-4 10-7 15-7 5 0 9 1 13 4l0 1c8 6 9 19 3 27z m-104-139c-11 3-22-3-24-14 0 0-1 0-1 0-2-11 4-21 15-24 1 0 3-1 4-1 9 0 17 6 19 15 3 11-3 21-13 24z m-13-57c-11 0-20-8-21-19 0 0 0 0 0-1 0-10 9-19 19-20 1 0 1 0 1 0 10 0 19 9 19 19 1 11-7 20-18 21z m37 110c-9 5-21 2-26-8l-1 0c-4-10 0-22 9-27 3-1 6-2 9-2 7 0 14 4 17 11 5 10 2 21-8 26z m35 47c-8 7-20 6-27-2 0 0 0-1 0-1-7-8-6-20 3-27 3-3 8-4 12-4 6 0 11 2 15 7 7 8 6 20-3 27z m-50-232c-2 11-12 18-22 16-11-2-18-12-16-23l0 0c1-9 10-16 19-16 1 0 2 0 3 0 11 2 18 12 16 23z m317 148c-25 0-49-10-66-28-16 18-40 28-65 28-50 0-91-40-91-90 0-27 12-53 33-70 0 0 0 0 0 0l111-89c4-2 8-4 12-4 5 0 9 2 13 5l116 92c0 0 1 1 1 1 17 18 27 40 27 65 0 50-41 90-91 90z m37-126l-103-82-99 78c-11 10-18 24-18 40 0 28 23 51 52 51 21 0 39-12 47-32 3-7 10-12 18-12 8 0 15 5 18 12 8 20 27 32 48 32 29 0 52-23 52-51 0-14-5-27-15-36z" horiz-adv-x="1000" />

<glyph glyph-name="cat" unicode="&#xe80b;" d="M635 492c-9 0-17-7-17-17 0-28-22-50-50-50-28 0-51 22-51 50v1c7 2 14 6 19 11 7 7 7 18 0 24-7 7-17 7-24 0-7-6-17-6-24 0-6 7-17 7-24 0s-6-17 0-24l0 0c6-5 12-9 19-12l0 0c0-28-23-50-51-50s-50 22-50 50c0 10-8 17-17 17s-17-7-17-17c0-46 38-84 84-84 4 0 8 0 11 1 16-31 54-44 86-28 12 6 22 16 28 28 3-1 7-1 11-1 46 0 84 38 84 84 0 10-7 17-17 17z m-152-95c-3 1-5 4-7 6 9 6 17 13 24 22 7-9 15-16 24-22-9-13-28-16-41-6z m-84 247c-38 0-68-30-68-67 0-10 8-17 17-17s17 7 17 17c0 18 15 34 34 34s33-16 33-34c0-10 8-17 17-17s17 7 17 17c0 37-30 67-67 67z m202 0c-37 0-67-30-67-67 0-10 7-17 17-17s17 7 17 17c0 18 15 34 33 34s34-16 34-34c0-10 8-17 17-17s17 7 17 17c0 37-30 67-68 67z m220-661v84c0 50-19 97-54 132l-47 47v133c32 42 50 94 50 147v273c0 28-22 51-50 51-14 0-27-5-36-15l-77-76c-68 28-145 28-214 0l-77 76c-20 20-52 20-72 0-9-9-14-22-14-36v-273c0-53 18-105 50-147v-133l-14-15c-24 38-36 82-36 126 0 28-23 51-51 51s-51-23-51-51v-27c0-70 23-137 64-193-9-22-13-46-13-70v-84c-36-9-58-46-48-82 7-30 34-51 65-51h608c38 0 68 30 68 68 0 30-21 57-51 65z m-113 828c6 7 17 7 24 0 3-3 5-7 5-12v-150c-24 39-58 71-98 94l69 68z m-445-12c0 10 8 17 17 17 5 0 9-2 12-5l69-68c-40-23-74-55-98-94v150z m0-273c0 99 72 183 169 211v-42c0-9 8-17 17-17s17 8 17 17v48c23 4 45 4 68 0v-48c0-9 7-17 17-17s17 8 17 17v42c97-28 169-112 169-211-1-50-18-98-51-135h0v0c-90-103-246-113-349-23-8 7-16 14-23 23v0h0c-32 37-50 85-51 135z m-101-196v27c0 9 8 17 17 17s17-8 17-17c0-53 16-106 45-150l-8-8c-8-9-16-19-23-29-31 48-48 103-48 160z m77-446h-43c-19 0-34 15-34 34s15 33 34 33c9 0 17 8 17 17v99c0 41 16 79 44 108l23 23v-215c-29-8-50-35-50-65 0-12 3-24 9-34z m464 0h-51c-28 0-51 22-51 50v203h-33v-203c0-18 6-36 17-50h-170c11 14 17 32 17 50v203h-33v-203c0-28-23-50-51-50h-51c-18 0-34 15-34 34s16 33 34 33c10 0 17 8 17 17v374c107-93 266-93 372 0v-374c0-9 8-17 17-17 19 0 34-15 34-33s-15-34-34-34z m101 0h-43c6 10 9 22 9 34 0 30-20 57-50 65v215l23-23c28-29 44-67 44-108v-99c0-9 8-17 17-17 19 0 34-15 34-33s-15-34-34-34z" horiz-adv-x="1000" />

<glyph glyph-name="layers" unicode="&#xe80c;" d="M1000 350c0 21-12 40-31 50l-74 37 74 37c0 0 0 0 0 0 19 10 31 29 31 50 0 21-12 40-31 49l-420 210c-31 16-67 16-98 0l-420-210c-19-9-31-28-31-49 0-21 12-40 31-50l74-37-74-37c-19-10-31-29-31-50s12-40 31-50l74-37-74-37c-19-9-31-28-31-50 0-21 12-40 31-49l420-210c15-8 32-12 49-12 17 0 34 4 49 12l420 210c19 9 31 28 31 49 0 22-12 41-31 50l-74 37 74 37c19 10 31 29 31 50z m-949 165c-4 3-5 7-5 9s1 6 5 8l421 210c9 5 18 7 28 7 10 0 20-2 29-7l420-210c4-2 5-6 5-8s-1-6-5-9l-420-210c-18-9-40-9-57 0l-421 210z m898-330c4-2 5-6 5-9 0-2-1-6-5-8l-420-210c-18-9-40-9-57 0l-421 210c-4 2-5 6-5 8 0 3 1 7 5 9l106 53 294-148c15-7 32-11 49-11 17 0 34 4 49 11l295 148 105-53z m0 157l-420-211c-18-9-40-9-57 0l-421 211c-4 2-5 6-5 8 0 2 1 6 5 9l106 52 294-147c15-8 32-12 49-12 17 0 34 4 49 12l295 147 105-52c4-3 5-7 5-9 0-2-1-6-5-8z" horiz-adv-x="1000" />

<glyph glyph-name="responsive" unicode="&#xe80d;" d="M932 759h-773c-38 0-68-29-68-68v-227c0-14 9-23 23-23s22 9 22 23v227c0 14 10 23 23 23h773c14 0 23-9 23-23v-545c0-14-9-23-23-23h-546c-13 0-22-9-22-23s9-23 22-23h46v-68c0-14-9-23-23-23h-23c-13 0-22-9-22-22s9-23 22-23h319c13 0 22 9 22 23s-9 22-22 22h-23c-14 0-23 9-23 23v68h273c39 0 68 30 68 69v545c0 39-29 68-68 68z m-459-773c2 7 4 14 4 23v68h137v-68c0-9 2-16 4-23h-145z m413 273h-500c-13 0-22-9-22-23s9-22 22-22h500c14 0 23 9 23 22s-9 23-23 23z m-636 137h-182c-38 0-68-30-68-69v-318c0-39 30-68 68-68h182c39 0 68 29 68 68v318c0 39-29 69-68 69z m23-387c0-14-9-23-23-23h-182c-13 0-22 9-22 23v318c0 14 9 23 22 23h182c14 0 23-9 23-23v-318z" horiz-adv-x="1000" />

<glyph glyph-name="settings" unicode="&#xe80e;" d="M642 130c-10 6-21 13-32 19 3 21 3 43 0 65 11 6 22 12 32 19 18 10 25 33 17 52 0 0 0 0 0 0l-23 55c-7 19-28 30-48 25-12-3-24-6-36-9-14 17-29 32-46 46 3 12 6 24 9 36 5 20-6 41-25 48l-55 23c-19 8-42 1-52-17-7-10-13-21-19-32-22 3-44 3-65 0-6 11-13 22-19 32-11 18-33 25-52 17l-56-23c-19-7-29-28-24-48 3-12 6-24 9-36-17-14-32-29-46-46-12 3-24 6-36 9-20 5-41-6-49-25l-23-55c-8-19 0-42 17-52 11-7 22-13 32-19-2-22-2-44 0-65-10-6-21-13-32-19-17-11-25-33-17-52l23-56c8-19 29-29 49-24 12 3 24 6 36 9 14-17 29-33 46-46-3-12-6-24-9-36-5-20 5-41 24-49l56-23c5-2 10-3 16-3 14 0 28 7 36 20 6 11 12 21 19 32 21-2 43-2 65 0 6-11 12-21 19-32 10-17 33-25 52-17l55 23c19 8 30 29 25 49-3 12-6 24-9 36 17 13 32 29 46 46 12-3 24-6 36-9 20-5 41 5 48 24l23 56c8 19 1 41-17 52z m-46-88c-11 3-23 6-35 9-16 4-33-2-44-15-11-15-25-29-41-41-13-10-19-28-14-44 3-12 6-23 9-34l-51-22c-6 11-12 21-18 31-9 15-25 23-42 21-19-2-38-2-58 0-16 2-33-6-41-21-6-10-12-21-18-31l-51 22c3 11 6 23 9 34 4 16-2 34-15 44-15 12-29 26-41 41-10 13-27 19-44 15-11-3-23-6-34-9l-22 51c11 6 21 12 31 18 15 8 23 25 21 41-2 20-2 39 0 58 2 17-6 33-21 42-10 6-20 12-31 18l22 51c11-3 23-6 34-9 17-5 34 1 44 14 12 16 26 30 41 41 13 11 19 28 15 44-3 12-6 24-9 35l51 21c6-10 12-20 18-31 8-14 25-23 41-20 20 2 39 2 58 0 17-3 33 6 42 20 6 11 12 21 18 31l51-21c-3-11-6-23-9-35-5-16 1-33 14-44 16-11 30-25 41-41 11-13 28-19 44-14 12 3 24 6 35 9l21-51c-10-6-20-12-31-18-14-9-23-25-20-42 2-19 2-38 0-58-3-16 6-33 20-41 11-6 21-12 31-18l-21-51z m-124 198c0 0 0 0 0 0-32 77-121 114-199 82-78-32-115-121-83-199 16-38 45-67 83-83 19-7 39-11 58-11s40 4 59 11c77 33 114 122 82 200z m-99-158c-27-11-56-11-83 0-27 11-47 31-58 58-23 55 3 118 58 141 14 5 27 8 41 8 42 0 83-25 100-66 23-55-4-119-58-141z m597 571c-8 1-16 2-24 3-4 14-9 27-16 39 5 6 10 13 15 19 10 14 8 34-4 46l-31 31c-12 12-32 14-46 4-6-5-13-10-19-15-12 7-25 12-39 16-1 8-2 16-3 24-3 17-18 30-35 30h-44c-17 0-32-13-35-30-1-8-2-16-3-24-14-4-27-9-39-16-6 5-13 10-19 15-14 10-34 8-46-4l-31-31c-12-12-14-32-4-46 5-6 10-13 15-19-7-12-12-25-16-39-8-1-16-2-24-3-17-3-30-18-30-35v-44c0-17 13-32 30-35 8-1 16-2 24-3 4-14 9-27 16-39-5-6-10-13-15-19-10-14-8-34 4-46l31-31c12-12 32-14 46-4 6 5 13 10 19 15 12-7 25-12 39-16 1-8 2-16 3-24 3-17 18-30 35-30h44c17 0 32 13 35 30 1 8 2 16 3 24 14 4 27 9 39 16 6-5 13-10 19-15 14-10 34-8 46 4l31 31c12 12 14 32 4 46-5 6-10 13-15 19 7 12 12 25 16 39 8 1 16 2 24 3 17 3 30 18 30 35v44c0 17-13 32-30 35z m-12-73c-7-1-15-2-22-3-14-2-26-12-29-25-4-14-9-26-16-38-7-13-6-28 3-39 4-6 8-12 13-17l-23-23c-5 5-11 9-17 13-11 9-26 10-39 3-12-7-24-12-38-16-13-3-23-15-25-29-1-7-2-15-3-22h-32c-1 7-2 15-3 22-2 14-12 26-25 29-14 4-26 9-38 16-13 7-28 6-39-3-6-4-12-8-17-13l-23 23c5 5 9 11 13 17 9 11 10 26 3 39-7 12-12 24-16 38-3 13-15 23-29 25-7 1-15 2-22 3v32c7 1 15 2 22 3 14 2 26 12 29 25 4 14 9 26 16 38 7 13 6 28-3 39-4 6-8 12-13 17l23 23c5-5 11-9 17-13 11-9 26-10 39-3 12 7 24 12 38 16 13 3 23 15 25 29 1 7 2 15 3 22h32c1-7 2-15 3-22 2-14 12-26 25-29 14-4 26-9 38-16 13-7 28-6 39 3 6 4 12 8 17 13l23-23c-5-5-9-11-13-17-9-11-10-26-3-39 7-12 12-24 16-38 3-13 15-23 29-25 7-1 15-2 22-3v-32z m-212 107c-50 0-91-41-91-91 0-50 41-91 91-91s91 41 91 91c0 50-41 91-91 91z m0-141c-28 0-50 22-50 50 0 28 22 50 50 50 28 0 50-22 50-50 0-28-22-50-50-50z" horiz-adv-x="1000" />

<glyph glyph-name="shopping-bag" unicode="&#xe80f;" d="M900-17l-58 649c-1 13-12 22-25 22h-121c0 108-88 196-196 196s-196-88-196-196h-121c-13 0-24-9-25-22l-57-649c0-1 0-1 0-2 0-72 66-131 148-131h503c81 0 148 59 148 131 0 1 0 1 0 2z m-400 817c81 0 146-65 146-146h-292c0 81 66 146 146 146z m252-900h-503c-54 0-98 36-99 80l56 625h98v-87c0-14 11-25 25-25s25 11 25 25v87h292v-87c0-14 11-25 25-25s25 11 25 25v87h98l56-625c-1-44-45-80-98-80z" horiz-adv-x="1000" />

<glyph glyph-name="chat" unicode="&#xe810;" d="M727 751h-671c-31 0-56-25-56-56v-403c0-31 25-56 56-56h44v-150c0-10 6-18 14-22 3-1 6-2 9-2 7 0 13 3 17 7l167 167h33c13 0 24 10 24 23 0 13-11 24-24 24 0 0-44 0-45 0-5 0-11-3-15-7l-133-133c0 0 0 118 0 119-1 12-11 21-24 21h-67c-5 0-9 4-9 9v403c0 5 4 9 9 9h671c5 0 9-4 9-9v-155c0-13 11-23 24-23s23 10 23 23v155c0 31-25 56-56 56z m217-289h-470c-31 0-56-25-56-56v-274c0-32 25-57 56-57h294l119-119c5-5 11-7 17-7 3 0 6 1 9 2 9 4 15 12 15 22v102h16c31 0 56 25 56 57v274c0 31-25 56-56 56z m9-330c0-6-4-10-9-10h-40c-12 0-23-9-24-21 0-1 0-71 0-71l-85 85c0 0 0 1-1 1 0 0 0 0-1 1-4 3-9 5-15 5h-304c-5 0-9 4-9 10v274c0 5 4 9 9 9h470c5 0 9-4 9-9v-274z m-244 160c-13 0-24-10-24-23 0-13 11-24 24-24 13 0 24 11 24 24 0 13-11 23-24 23z m-103 303c0 0-429 0-429 0-13 0-23-11-23-24s10-23 23-23h429c13 0 24 10 24 23s-11 24-24 24z m-266-156h-163c-13 0-23-11-23-24 0-13 10-23 23-23h163c13 0 24 10 24 23s-11 24-24 24z m259-147c-13 0-23-10-23-23 0-13 10-24 23-24 13 0 24 11 24 24 0 13-11 23-24 23z m220 0c-13 0-24-10-24-23 0-13 11-24 24-24 13 0 23 11 23 24 0 13-10 23-23 23z" horiz-adv-x="1000" />

<glyph glyph-name="favorites" unicode="&#xe811;" d="M922 456c18 18 25 44 17 68-8 24-28 41-53 45l-219 31c-4 1-8 4-10 8l-98 198c-11 23-34 37-59 37-25 0-48-14-59-37l-98-198c-2-4-6-7-10-8l-219-31c-25-4-45-21-53-45-8-24-1-50 17-68l158-154c3-3 5-8 4-12l-37-218c-5-25 5-49 26-64 20-15 47-17 69-5l196 103c4 2 8 2 12 0l196-103c10-6 20-8 31-8 13 0 27 4 38 13 21 15 31 39 27 64l-38 218c-1 4 1 9 4 12l158 154z m-214-175l38-218c1-7-4-11-6-13-2-1-7-4-14-1l-195 103c-10 5-20 8-31 8-10 0-21-3-31-8l-195-103c-7-3-12 0-14 1-2 2-7 6-5 13l37 218c4 22-4 43-19 59l-158 154c-6 5-4 11-4 13 1 3 4 8 11 9l219 32c21 3 40 17 49 36l98 198c4 7 10 8 12 8 3 0 9-1 12-8v0l98-198c9-19 28-33 49-36l219-32c8-1 10-6 11-9 1-2 2-8-3-13l-159-154c-15-16-22-37-19-59z m100 525c-12 8-28 6-37-6l-28-39c-8-11-6-28 6-36 5-4 10-5 16-5 8 0 16 3 21 10l28 39c9 12 6 28-6 37z m-551-44l-28 38c-9 12-25 15-37 6-12-9-15-25-6-37l28-38c5-7 13-11 21-11 6 0 11 1 16 5 12 8 14 25 6 37z m-160-511c-5 14-20 21-33 17l-46-15c-14-5-21-19-17-33 4-11 14-18 25-18 3 0 6 0 9 1l45 15c14 4 21 19 17 33z m403-293c-15 0-26-12-26-27v-47c0-15 11-27 26-27 15 0 26 12 26 27v47c0 15-11 27-26 27z m482 295l-45 15c-14 4-29-3-34-17-4-14 3-29 17-34l46-14c2-1 5-2 8-2 11 0 21 8 25 19 4 14-3 28-17 33z" horiz-adv-x="1000" />

<glyph glyph-name="half-moon-and-sun" unicode="&#xe812;" d="M310 276l68 38-12 44c-104 10-185 98-185 205 0 113 91 205 205 205 38 0 73-11 104-29 10-6 21 8 13 17-53 58-129 94-214 94-158-1-287-130-287-288 0-159 129-287 288-287 7 0 13 0 20 1z m399 190l-47 83c-5 7-12 10-19 10s-14-3-18-10l-48-83c22 5 44 8 66 8 22 0 44-3 66-8z m-132-522l48-83c4-7 11-11 18-11 7 0 14 4 19 11l47 83c-22-6-44-8-66-8-22 0-44 2-66 8z m-278 279c-14-8-14-29 0-37l83-47c-5 21-8 43-8 66 0 22 3 44 8 65l-83-47z m688 0l-83 47c5-21 8-43 8-65 0-23-3-45-8-66l83 47c14 8 14 29 0 37z m-108 239c-2 0-4 0-6-1l-92-25c19-12 36-25 52-41 16-16 30-33 41-52l25 92c4 14-7 27-20 27z m-472-514c2 0 4 0 6 0l92 26c-19 11-36 25-52 41-16 15-29 33-41 52l-25-92c-4-14 7-27 20-27z m0 514c-13 0-24-13-20-27l21-77 4-15c4 6 8 12 12 18 9 12 18 23 29 34 16 16 33 29 52 41l-92 25c-2 1-4 1-6 1z m472-514c13 0 24 13 20 27l-25 92c-11-19-25-37-41-52-16-16-33-30-52-41l92-26c2 0 4 0 6 0z m-334 467c-4-2-8-4-12-6-4-2-7-4-11-6-10-6-19-13-28-21-10-8-20-18-29-28-7-9-14-19-20-28-1-3-3-6-4-9-3-4-5-9-8-14-3-6-5-13-8-19-3-8-5-16-7-25-3-11-5-22-6-34 0-7-1-13-1-20 0-7 1-14 1-21 1-11 3-23 6-34 2-8 4-16 7-24 3-7 5-13 8-20 4-7 8-15 12-22 6-10 13-19 20-28 9-10 19-20 29-29 9-7 18-14 28-20 8-4 15-9 23-12 6-3 13-6 19-8 8-3 16-6 25-8 11-2 22-4 34-5 6-1 13-1 20-1s14 0 21 1c11 1 23 3 34 5 8 2 16 5 24 8 7 2 13 5 20 8 7 3 15 8 22 12 10 6 19 13 28 20 10 9 20 19 29 29 7 9 14 18 20 28 4 7 8 15 12 22 3 7 6 13 8 20 3 8 5 16 7 24 3 11 5 23 6 34 1 7 1 14 1 21 0 7 0 13-1 20-1 12-3 23-6 34-2 9-4 17-7 25-2 6-5 13-8 19-4 8-8 15-12 23-6 9-13 19-20 28-9 10-19 20-29 28-9 8-18 15-28 21-7 4-15 8-22 12-7 3-13 5-20 8-8 3-16 5-24 7-11 3-23 5-34 6-7 0-14 1-21 1-7 0-14-1-20-1-12-1-23-3-34-6-9-2-17-4-25-7-6-3-13-5-19-8z" horiz-adv-x="1000" />

<glyph glyph-name="moon-1" unicode="&#xe813;" d="M887 145c-19-2-38-3-58-2-234 6-423 197-427 431 0 32 3 64 9 95 4 22-17 41-38 33-172-61-295-226-292-419 3-239 198-432 437-433 176-1 329 103 399 253 9 21-7 44-30 42z m-134 705v-324c-9 2-19 2-29 2-67 0-117-37-117-87s50-88 117-88 117 38 117 88v321h73v88h-161z" horiz-adv-x="1000" />

<glyph glyph-name="physics-atom" unicode="&#xe814;" d="M873 299c-13 17-28 34-43 51 15 17 30 34 43 50 30 40 50 77 60 111 8 28 13 67-8 102-29 47-88 56-132 56-37 0-80-6-126-18-4 14-9 29-14 43-18 46-39 83-63 109-27 31-59 47-91 47h0c-41 0-72-26-91-47-23-26-44-63-62-110-5-13-10-28-14-42-45 12-88 18-125 18-44 0-103-9-132-56-21-35-16-74-8-102 10-34 30-71 60-111 13-16 28-33 43-50-15-17-30-34-43-51-30-40-50-77-60-111-8-27-13-67 8-102 29-46 88-56 132-56 38 0 80 7 126 19 4-15 9-29 15-43 17-47 38-83 62-110 27-30 59-46 91-46h0c41 0 72 25 91 46 23 27 44 64 62 111 5 13 10 27 14 41 46-12 88-18 125-18 0 0 0 0 0 0 44 0 103 10 132 56 21 35 16 75 8 102-10 34-30 71-60 111z m-80 314c24 0 68-4 84-30 18-29-1-84-49-148-12-15-25-30-39-45-26 25-55 49-87 73-4 46-11 91-20 133 41 11 79 17 111 17z m-165-492c-1 0-1 0-1 0-21 7-42 16-64 25 16 9 31 18 46 27 11 7 21 14 32 20-4-25-8-49-13-72z m-49 101c-26-17-52-32-79-45-27 13-53 28-79 45-24 14-47 30-69 45-2 27-3 55-3 82 0 28 1 56 3 83 22 16 45 31 69 46 26 16 52 31 79 45 27-14 53-29 79-45 24-15 47-30 69-46 2-27 3-54 3-82 0-28-1-56-3-83-22-15-45-31-69-45z m-206-101c-5 23-9 47-13 72 10-7 20-13 31-20 15-9 30-18 46-27-22-9-43-18-63-25-1 0-1 0-1 0z m-80 192c-15 12-29 24-42 37 13 12 27 24 42 37 0-13 0-25 0-38 0-12 0-24 0-36z m79 266c1 0 1-1 2-1 20-7 41-15 63-25-16-8-31-17-46-27-11-7-21-13-32-20 4 25 8 50 13 73z m255 0c5-23 10-48 13-73-10 7-20 14-31 20-15 10-30 19-46 27 22 10 43 18 64 25 0 0 0 0 0 1z m80-192c15-13 29-25 42-37-13-13-27-25-42-37 0 12 1 25 1 37-1 12-1 25-1 37z m-308 286c29 75 66 120 100 120 34 0 72-45 100-120 5-12 10-26 14-39-37-13-75-29-113-48-39 19-77 35-114 48 4 14 9 27 13 39z m-276-90c16 26 60 30 84 30 32 0 69-6 111-17-10-42-16-87-21-134-31-23-60-48-86-72-14 15-27 30-39 45-48 64-67 119-49 148z m84-496c-24 0-68 4-84 29-18 29 1 85 49 148 12 15 25 30 39 46 26-25 55-50 87-73 4-47 11-92 21-133-42-11-80-17-112-17z m394-60c-29-75-66-120-100-120h0c-34 0-72 44-100 119-5 13-10 26-14 40 37 12 75 28 113 47 39-19 77-35 114-48-4-13-9-26-13-38z m276 89c-16-25-60-29-84-29 0 0 0 0 0 0-32 0-69 5-111 17 10 41 17 86 21 133 31 24 60 48 86 73 14-16 27-31 39-46 48-63 67-119 49-148z" horiz-adv-x="1000" />

<glyph glyph-name="comet" unicode="&#xe815;" d="M149 227c3-58 27-114 71-159 96-96 252-96 348 0s96 252 0 348-252 96-348 0c-29-29-50-64-61-102 15 3 31-1 43-12 18-18 18-48 0-66-15-14-36-17-53-9z m270-7c20 20 51 20 71 0 20-20 20-51 0-71-20-19-51-19-71 0-20 20-20 51 0 71z m-93 191c17 16 44 16 61 0 16-17 16-44 0-61-17-17-44-17-61 0-16 17-16 44 0 61z m-71-216c15 15 39 15 54 0 15-15 15-39 0-54-15-15-39-15-54 0-15 15-15 39 0 54z m388-225c11 13 22 26 31 40 19 27 37 53 54 81l10 16c7 11 14 21 21 32 6 11 122 210 135 232 6 11 12 22 18 34l18 33c12 23 24 45 35 68 12 23 24 46 35 69-16-20-31-41-47-61l-45-62-46-61-45-62c0 0-166-223-182-243 0 0-11-14-11-15-95-120-261-169-396-84-19 11-35 25-51 40-53 54-84 128-84 204 0 93 43 173 114 231l14 12 15 12c20 15 40 30 60 46 10 7 20 15 30 22 10 8 276 204 276 204l61 46c21 15 41 30 61 46-23-11-45-23-68-34-23-12-46-24-68-36l-34-18c-11-6-22-12-33-18-23-12-45-25-67-38-22-12-44-25-66-38-11-6-121-73-131-80-11-7-22-14-33-21-10-7-21-14-32-21l-16-11c0 0-16-11-16-11-35-25-66-53-91-88-17-23-31-49-42-76-10-26-18-54-22-83-3-14-4-29-4-43-1-15 0-29 1-43 2-29 8-58 17-86 5-13 10-27 16-40 6-13 13-26 21-39 15-24 33-46 52-67 0 0 2-1 2-1 20-20 42-38 67-53 25-15 51-27 79-36 27-9 56-15 85-18 14-1 29-1 43-1 15 1 29 2 44 4 28 4 56 12 83 23 27 10 52 24 75 41 22 15 40 33 57 52z m-242 590c78 1 142-32 142-32l274 319-416-287z m597 106l-318-275c0 0 33-64 32-142l286 417z" horiz-adv-x="1000" />

<glyph glyph-name="user" unicode="&#xe816;" d="M998-7c-5 21-26 35-47 30-21-4-34-25-30-46 3-12 0-24-8-34-5-6-15-15-31-15h-763c-17 0-27 9-32 15-7 10-10 22-8 34 41 195 212 337 411 342 3 0 7 0 10 0 4 0 7 0 10 0 140-3 269-74 347-191 13-18 37-22 55-10 18 12 22 36 10 54-64 95-157 165-263 200 65 48 107 126 107 212 0 147-119 266-266 266s-266-119-266-266c0-86 42-164 107-212-59-20-115-50-164-90-89-74-151-176-174-289-8-35 1-71 24-99 22-28 56-44 92-44h763c35 0 69 16 91 44 23 28 32 64 25 99z m-685 591c0 104 84 188 187 188s188-84 188-188c0-100-79-182-178-187-4 0-7 0-10 0-3 0-6 0-9 0-99 5-178 87-178 187z" horiz-adv-x="1000" />

<glyph glyph-name="return" unicode="&#xe817;" d="M752 497c-2 0-681 0-681 0l143 161c9 10 8 26-2 35-11 10-27 9-36-2l-161-181c-20-22-20-55 0-77l161-181c5-5 12-8 19-8 6 0 12 2 17 6 10 10 11 26 2 36l-143 161c0 0 679 0 681 0 109 0 198-89 198-198s-89-198-198-198h-121c-14 0-25-11-25-25 0-14 11-26 25-26h121c137 0 248 112 248 249 0 137-111 248-248 248z" horiz-adv-x="1000" />

<glyph glyph-name="play-button" unicode="&#xe818;" d="M500 850c-276 0-500-224-500-500s224-500 500-500 500 224 500 500-224 500-500 500z m173-527l-250-156c-5-3-11-4-17-4-5 0-10 1-15 3-10 6-16 16-16 28v312c0 12 6 22 16 28 10 5 22 5 32-1l250-156c9-6 14-16 14-27s-5-21-14-27z" horiz-adv-x="1000" />

<glyph glyph-name="shoping" unicode="&#xe819;" d="M949 462c-21 27-50 41-81 41h-70c-7 181-138 326-298 326-160 0-291-145-298-326h-70c-31 0-60-14-81-41-26-32-36-78-26-122l85-373c13-56 56-96 106-96h568c49 0 93 40 106 96l85 373c10 44 0 90-26 122z m-449 287c116 0 212-109 218-246h-436c6 137 102 246 218 246z m397-391l-85-373c-4-19-16-34-28-34h-568c-12 0-24 15-28 34l-85 373c-4 19-7 65 29 65h736c39 0 33-46 29-65z m-595-14c-22 0-40-18-40-40v-249c0-22 18-40 40-40 22 0 40 18 40 40v249c0 22-18 40-40 40z m193 0c-22 0-39-18-39-40v-249c0-22 17-40 39-40 22 0 40 18 40 40v249c0 22-18 40-40 40z m193 0c-22 0-40-18-40-40v-249c0-22 18-40 40-40 22 0 40 18 40 40v249c0 22-18 40-40 40z" horiz-adv-x="1000" />

<glyph glyph-name="cannabis" unicode="&#xe82e;" d="M1001 189c-1 8-8 14-16 15l-112 17c-46 7-93 7-139-1 12 10 22 21 32 33 44 49 77 105 100 166l46 125c3 7 1 16-5 21-6 5-15 7-22 3l-119-61c-56-30-106-68-149-116 7 34 11 68 11 103 0 73-17 147-48 213l-61 131c-4 7-11 11-18 11s-15-4-18-11l-61-131c-3-6-6-12-9-19-4-10 1-21 11-25s21 0 25 10c3 6 6 12 8 18l44 93 44-93c28-62 43-130 43-197 0-55-9-108-28-159l-20-55c-16-32-29-66-39-100-10 35-23 69-40 101l-19 54c-19 51-29 104-29 159 0 16 1 32 3 47 1 11-7 21-18 22-10 1-20-7-21-18-2-17-3-34-3-51 0-35 4-69 11-102-43 47-93 85-149 115l-119 61c-7 4-16 3-22-3-6-5-8-14-5-21l46-125c23-61 56-117 100-166 10-12 20-23 32-33-46 8-92 8-139 1l-112-17c-8-1-14-7-16-15-2-7 1-16 7-20l91-68c46-33 96-57 150-70 18-4 36-8 55-10-13-14-24-29-33-46l-35-63c-3-7-3-15 2-21 3-5 9-8 15-8 2 0 3 0 4 0l70 13c37 7 70 21 99 41 21 16 40 35 55 57v-125c0-11 9-19 20-19 11 0 19 8 19 19v126c16-23 35-42 56-58 29-20 62-34 99-41l70-13c1 0 2 0 4 0 6 0 12 3 15 8 5 6 5 14 2 21l-35 63c-9 17-20 32-33 46 19 2 37 6 55 10 54 13 104 37 150 70l91 68c6 4 9 13 7 20z m-469-46c9 40 23 78 41 115 1 1 2 3 3 5l0 1c18 35 41 68 67 98 40 45 88 82 141 110l74 38-29-77c-21-57-52-109-92-154-36-41-78-75-125-101-4-2-8-4-11-6-22-12-44-22-68-30l-1-1z m-359 290l-29 77 74-38c53-28 101-65 141-110 55-62 93-138 111-219l0-2-1 1c-24 8-46 18-68 30-3 2-7 4-11 6-47 26-89 60-125 101-40 45-71 97-92 154z m-50-300l-54 39 66 11c50 7 101 5 150-7 30-7 60-19 88-33 3-2 6-4 9-6 30-16 57-37 82-62-68-20-139-22-205-6-49 12-95 34-136 64z m280-164c-24-17-52-29-83-35l-30-5 15 27c14 25 32 46 53 63 34 1 68 6 102 14-15-25-34-47-57-64z m279-35c-31 6-59 18-83 35-23 17-42 39-57 64 34-8 68-13 102-14 21-17 39-38 53-63l15-27z m197 199c-41-30-87-52-135-64-67-16-138-14-206 6 25 25 53 46 82 63 3 1 6 3 9 5 28 14 58 26 88 33 49 12 100 14 150 7l66-11z m0 0m-471 458c5 0 10 2 14 6 4 3 6 9 6 14 0 5-2 10-6 14-4 3-9 5-14 5-5 0-10-2-14-5-3-4-5-9-5-14 0-5 2-11 5-14 4-4 9-6 14-6z m0 0" horiz-adv-x="1000" />

<glyph glyph-name="doctor" unicode="&#xe82f;" d="M943-99l-44 259c-5 28-25 51-52 59l-119 36c-3 29-15 56-35 78-16 18-36 30-58 37 4 5 8 9 11 13 28 36 43 76 47 103h9c24 0 44 19 44 43v22c0 16-9 31-23 38v54c0 8-6 15-14 15s-15-7-15-15v-60c-6-1-12-3-19-6-1 0-2 0-2-1-2 0-4-1-5-2v118c0 33-27 59-59 59h-41c-14 0-27-5-38-14l-4-3c-7-6-17-9-26-9-9 0-19 3-26 9l-4 3c-11 9-24 14-38 14h-41c-32 0-59-26-59-59v-118c-1 1-3 2-4 2-1 1-2 1-2 1-7 3-14 5-20 6v152c0 47 39 86 86 86h216c47 0 86-39 86-86v-23c0-8 7-15 15-15s14 7 14 15v23c0 63-51 115-115 115h-216c-64 0-115-52-115-115v-146c-14-7-23-22-23-38v-22c0-24 20-43 44-43h9c4-27 19-67 47-103 4-4 7-8 11-13-51-16-88-61-93-115l-119-36c-27-8-47-31-52-59l-17-105c-2-8 3-15 11-17 8-1 16 4 17 12l18 105c3 17 15 31 32 36l110 33v-29c-25-5-47-22-56-46-2-6-4-13-4-20l-11-137c-1-10 3-21 10-28 7-8 17-12 27-12h19c8 0 14 6 14 15 0 8-6 14-14 14h-19c-2 0-4 1-5 3-2 1-3 4-3 6l11 137c0 4 1 8 3 12 6 17 23 28 41 28l3 0c0 0 0 0 0 0 18 0 34-10 41-26 2-5 3-9 3-14l11-137c0-2-1-5-2-6-2-2-4-3-6-3h-18c-8 0-15-6-15-14 0-9 7-15 15-15h18c10 0 20 4 27 12 7 7 11 18 10 28l-11 137c0 8-2 16-5 23-10 23-30 39-55 43v38l51 15c4-10 13-30 31-75 18-46 41-104 62-160 1-1 1-1 1-2 14-38 28-75 40-106 2-6 8-10 14-10 6 0 12 4 14 10 12 31 26 68 40 106 0 1 0 1 1 2 21 56 44 114 62 160 18 45 27 65 32 75l50-15v-87c-35-6-61-37-61-74 0-42 34-76 75-76 42 0 76 34 76 76 0 37-26 67-61 74v78l111-33c16-5 28-19 31-36l44-259c1-4 0-8-3-12-3-3-7-5-11-5h-800c-4 0-8 2-11 5-2 4-4 8-3 12l15 86c1 8-4 15-12 17-8 1-16-4-17-12l-15-86c-2-13 2-26 10-35 8-10 20-16 33-16h800c13 0 25 6 33 16 9 9 12 22 10 35z m-249 652c8 2 14 2 14 2 3 0 5 0 8 2 0-2 1-4 1-6v-22c0-8-7-14-15-14h-8v38z m-388-38l0 0h-8c-8 0-14 6-14 14v22c0 2 0 4 1 6 2-2 4-2 7-2 0 0 6 0 14-2v-38z m29-16v38c5-1 9-1 14 1 8 3 13 10 13 19v135c0 16 13 30 29 30h41c7 0 14-3 20-7l4-4c12-10 28-15 44-15 16 0 32 5 44 15l4 4c6 4 13 7 20 7h41c16 0 30-14 30-30v-135c0-9 4-16 12-19 3-1 5-2 8-2 2 0 4 1 6 1v-38c0-22-15-63-42-98-9-12-21-24-35-35-1 0-1-1-2-1-22-16-50-29-86-29s-64 13-86 29c-1 0-1 1-2 1-14 11-26 23-35 35-27 35-42 76-42 98z m261-237l-96-72-96 72c10 12 15 28 15 41v24c23-12 49-20 81-20s59 8 81 20v-24c0-13 5-29 15-41z m-216 16c-8 3-17 4-25 2 0 0-1-1-1-1l-51-15c9 42 43 76 87 82v-43c0-9-4-18-10-25z m39-117c0 0 0 0 0 0 0 2-1 4-2 6 0 0 0 0 0 1-1 1-2 3-2 5 0 0 0 0-1 0-2 6-4 11-6 16 0 0 0 1 0 1-1 1-1 3-2 4 0 1 0 1-1 2 0 1-1 3-1 4 0 0 0 1-1 1-1 2-2 5-3 7 0 1 0 1 0 2-1 1-1 2-1 2-1 1-1 2-1 3-1 1-1 1-1 1 0 1 0 1 0 1-2 4-4 8-5 12 0 0 0 0 0 0-1 2-2 4-2 5-1 1-1 2-2 3l83-61-35-15c0 0 0 0 0 0l-14-6c-1 2-2 4-3 6z m35-90c-3 8-5 15-8 23-5 12-9 23-13 33l5 3 22-26-6-33z m46-119c0 1-1 2-1 2-7 18-15 40-24 65l13 74h24l14-74c-10-26-19-49-26-67z m17 171h-34l-17 19 34 14 34-14-17-19z m37-29c-2-8-5-15-8-23l-6 33 22 26 6-3c-5-10-9-21-14-33z m57 140c-1-1-2-3-3-5 0 0 0 0 0-1-1-1-2-3-2-5 0 0 0 0 0-1-1-1-2-3-3-5 0 0 0 0 0-1 0 0 0 0 0-1-1-1-1-1-1-2-1-1-1-2-2-3 0-1 0-1 0-1-1-3-2-5-3-8 0 0-1-1-1-1 0-1-1-3-1-4-1-1-1-1-1-2-1-1-1-3-2-4 0 0 0-1 0-1-2-5-4-10-6-16 0 0 0 0-1 0 0-2-1-4-2-5 0-1 0-1 0-1-1-2-2-4-2-6 0 0 0 0 0 0-1-2-2-4-3-6l-14 6c0 0 0 0 0 0l-35 15 83 61c-1-1-1-2-1-3z m35 45c0 0 0 0 0 0 0 0 0 0 0 0-8 3-17 2-26-1-5 7-10 16-10 25v43c44-6 78-40 87-82l-51 15z m114-207c0-26-21-47-47-47s-46 21-46 47c0 26 21 46 46 46s47-20 47-46z" horiz-adv-x="1000" />

<glyph glyph-name="scooter" unicode="&#xe830;" d="M880 245c-13 0-26-2-38-6l-17 33c17 6 36 10 55 10 22 0 43-4 63-13 8-4 18 0 21 8 4 9 0 18-8 22-24 10-50 15-76 15-24 0-48-4-69-13l-61 120c3 0 6-1 9-1h35c9 0 16 7 16 16v70c0 9-7 16-16 16h-35c-19 0-37-12-45-28l-17 34c-9 18-26 28-46 28h-30c-9 0-16-7-16-16s7-16 16-16h30c7 0 14-4 17-10l42-84-8-4c-17-9-28-26-28-45v-170h-139c-30 0-53 23-53 53v70h1c28 0 51 23 51 51s-23 50-51 50h-138c-14 0-27-5-36-14v240c0 19-15 34-34 34h-241c-19 0-34-15-34-34v-242c0-18 15-33 34-33h36c-1-4-1-7-1-11 0-22 19-41 42-41h87c-11-7-20-15-28-22-36-32-55-70-61-95-3-14 0-28 8-39 9-11 22-17 35-17 0 0 0 0 0 0l9 0c-4-11-5-23-5-36 0-66 53-119 119-119 61 0 111 45 119 103h313c9 0 17 7 17 16 0 11 1 22 3 32 8 42 34 78 69 100l17-33c-32-21-53-58-53-99 0-66 54-119 120-119 66 0 120 53 120 119 0 67-54 120-120 120z m-535 158h138c10 0 18-8 18-18s-8-19-18-19h-138c-11 0-19 8-19 19s8 18 19 18z m-313 258c0 1 1 1 2 1h241c1 0 2 0 2-1v-36h-245v36z m2-243c-1 0-2 1-2 1v174h245v-174c0 0-1-1-2-1h-241z m77-52c-5 0-10 5-10 10 0 3 1 5 3 7 1 1 3 2 5 3l185 0c0-1 0-1 0-1 0-7 1-13 3-19h-186z m41-172c0 0 0 0 0 0-5 0-8 2-9 4-3 3-3 7-3 11 12 50 75 125 170 125 74 0 102-71 102-116 0-12-7-24-20-24l-240 0z m142-69c0-10-8-18-19-18s-18 8-18 18 8 19 18 19 19-8 19-19z m-19-87c-48 0-87 39-87 87 0 13 3 25 8 36l44 0c-10-9-15-22-15-36 0-28 22-50 50-50s51 22 51 50c0 14-6 27-15 36l44 1c5-12 8-24 8-37 0-48-39-87-88-87z m420 125c-1-7-2-14-3-21h-298c-1 6-2 13-4 20l2 0c30 0 52 24 52 56 0 35-12 71-32 98-4 6-10 12-16 18h53v-70c0-47 39-86 86-86h155c4 0 7 2 10 4-2-6-4-13-5-19z m64 326h19v-36h-19c-10 0-18 8-18 18s8 18 18 18z m-53-290v182c0 7 4 13 10 16l8 4 58-115c-34-20-60-50-76-87z m174-161c-48 0-87 39-87 87 0 49 39 88 87 88 48 0 88-39 88-88 0-48-40-87-88-87z m0 138c-28 0-51-23-51-51s23-50 51-50 51 22 51 50-23 51-51 51z m0-69c-10 0-18 8-18 18s8 19 18 19 19-8 19-19-9-18-19-18z" horiz-adv-x="1000" />
</font>
</defs>
</svg>
